Can't upload a video that matches Twitter video requirements

video
media-upload

#1

Hi, I’m trying to upload a video created with Vegas, but each time I want to post it , I’m getting the message “media could not be processed”. How come I can’t upload it? Thanks
Here are the video specs:

General
Complete name : D:\Temp\test.mp4
Format : MPEG-4
Format profile : Base Media / Version 2
Codec ID : mp42
File size : 1.63 MiB
Duration : 6s 256ms
Overall bit rate mode : Variable
Overall bit rate : 2 185 Kbps
Encoded date : UTC 2016-09-28 19:35:47
Tagged date : UTC 2016-09-28 19:35:47

Video
ID : 2
Format : AVC
Format/Info : Advanced Video Codec
Format profile : Main@L3.2
Format settings, CABAC : Yes
Format settings, ReFrames : 3 frames
Codec ID : avc1
Codec ID/Info : Advanced Video Coding
Duration : 6s 256ms
Bit rate mode : Variable
Bit rate : 1 989 Kbps
Maximum bit rate : 3 000 Kbps
Width : 1 280 pixels
Height : 720 pixels
Display aspect ratio : 16:9
Frame rate mode : Constant
Frame rate : 23.976 fps
Standard : NTSC
Color space : YUV
Chroma subsampling : 4:2:0
Bit depth : 8 bits
Scan type : Progressive
Bits/(Pixel*Frame) : 0.090
Stream size : 1.48 MiB (91%)
Language : English
Encoded date : UTC 2016-09-28 19:35:47
Tagged date : UTC 2016-09-28 19:35:47
Color range : Limited

Audio
ID : 1
Format : AAC
Format/Info : Advanced Audio Codec
Format profile : LC
Codec ID : 40
Duration : 6s 208ms
Bit rate mode : Constant
Bit rate : 192 Kbps
Channel(s) : channel0
Channel(s)_Original : 2 channels
Channel positions : Front: L R
Sampling rate : 48.0 KHz
Compression mode : Lossy
Stream size : 145 KiB (9%)
Language : English
Encoded date : UTC 2016-09-28 19:35:47
Tagged date : UTC 2016-09-28 19:35:47


#2

Thanks for the specs, can you upload the video somewhere that we can download and test it? thank you.


#3

Thanks, I uploaded the video on box:

https://app.box.com/s/8xj7c0jrubi09jowijdw9e8pxz7uzt4e


#4

Thanks - it fails for me too with the large-video-upload sample app. I’ll have to ask someone on the media team to take a look to clarify what is wrong with the file specification as I’m not sufficiently familiar with what the issue is here.


#6

When do you think you will get a response from the media team? Thanks for looking into this.


#7

It depends when someone has bandwidth to investigate, so I’m afraid I’m unable to provide any estimate.


#9

Any news regarding this?


#10

It’s been more than 3 weeks now, so does anybody know why I can’t upload my media?


#11

Hi,
I also have this problem with Sony Vegas 12 and 13. My workaround is to manually copy it to my phone and upload it. In the browser does not work, you get the same error. Workaround 2 in the browser is to trim 2 or so seconds off the start and end (when you edit the video add extra space)

I hope twitter can find what is wrong so we can use the API/browser to upload Sony Vegas edited videos.

Thanks.